A Score to Settle (2019)

HDAC3 5.1OryginałNot Rated


A Score to Settle (2019) 720p.WEB-DL.XviD.AC3-FGT

A Score to Settle (2019) 720p.WEB-DL.XviD.AC3-FGT


Produkcja: Kanada, USA
Gatunek: Thriller, Akcja
Premiera: 2 sierpnia 2019 (świat)
Reżyseria: Shawn Ku
Scenariusz: John Stuart Newman, Christian Swegal



https://www.imdb.com/title/tt3758162/
https://www.youtube.com/watch?v=78v4SXh-KF8



Nicolas Cage w roli specjalisty od brudnej roboty, który wychodzi z więzienia. Nieuleczalnie chory, ostatnie miesiące życia zamierza poświęcić na naprawienie stosunków z synem oraz wyrównanie rachunków z ludźmi, którzy go wykorzystali i porzucili, gdy przed laty wziął na siebie winę



Nicolas Cage
Nicolas Cage
...
Frank
Benjamin Bratt
Benjamin Bratt
...
Q
Noah Le Gros
Noah Le Gros
...
Joey
Mohamed Karim
Mohamed Karim
...
Jimmy
Karolina Wydra
Karolina Wydra
...
Simone
Ian Tracey
Ian Tracey
...
Tank
Rest of cast listed alphabetically:
Alex Alegria
Alex Alegria
...
Young Q
Carmel Amit
Carmel Amit
...
Simone 2
Aleksander Filipovic
Aleksander Filipovic
...
Young Joey
Linda Ko
Linda Ko
...
Prison Doctor
Nicole G. Leier
Nicole G. Leier
...
Sleepy's Daughter





Video
ID : 0
Format : MPEG-4 Visual
Format profile : [email protected]
Format settings, BVOP : No
Format settings, QPel : No
Format settings, GMC : No warppoints
Format settings, Matrix : Default (H.263)
Codec ID : XVID
Codec ID/Hint : XviD
Duration : 1 h 43 min
Bit rate : 3 755 kb/s
Width : 1 280 pixels
Height : 536 pixels
Display aspect ratio : 2.40:1
Frame rate : 23.976 (24000/1001) FPS
Color space : YUV
Chroma subsampling : 4:2:0
Bit depth : 8 bits
Scan type : Progressive
Compression mode : Lossy
Bits/(Pixel*Frame) : 0.228
Stream size : 2.72 GiB (90%)
Writing library : Lavc58.1.100

Audio
ID : 1
Format : AC-3
Format/Info : Audio Coding 3
Commercial name : Dolby Digital
Codec ID : 2000
Duration : 1 h 43 min
Bit rate mode : Constant
Bit rate : 384 kb/s
Channel(s) : 6 channels
Channel layout : L R C LFE Ls Rs
Sampling rate : 48.0 kHz
Frame rate : 31.250 FPS (1536 SPF)
Bit depth : 16 bits
Compression mode : Lossy
Stream size : 285 MiB (9%)
Alignment : Aligned on interleaves
Interleave, duration : 42 ms (1.00 video frame)
Interleave, preload duration : 512 ms
Service kind : Complete Main




Filmy / HD
Nie masz dostępu do pobierania
0

Poniższe wiadomości również Cię zainteresują.

Informacja
Członkowie grupy Gość nie posiadają uprawnień do komentowania tego artykułu.